(Blues Rock) [CD] Jordan Officer - I'm Free - 2014 (Jordan Officer Canada), FLAC (tracks+.cue), lossless

Страницы:  1

Ответить
Автор
Сообщение

Ready.zp

Moderator

Стаж: 10 лет 8 месяцев

Сообщений: 5347

Ready.zp · 22-Дек-15 14:00 (3 года 5 месяцев назад, ред. 22-Дек-15 14:01)

Jordan Officer - I'm Free
Жанр: Blues Rock
Страна-производитель диска: Canada
Год издания диска: 2014
Издатель (лейбл): Jordan Officer
Номер по каталогу: JOCD-7978
Страна: Canada
Аудиокодек: FLAC (*.flac)
Тип рипа: tracks+.cue
Битрейт аудио: lossless
Продолжительность: 00:43:49
Источник (релизер): суслик
Наличие сканов в содержимом раздачи:
Треклист:
01. At Least've Got The Blues 03:58
02. A Night Of Fun 03:40
03. I'm Free 05:17
04. When We Were Just Two 05:02
05. I'm All Alone 04:09
06. Jackie's Tune 03:40
07. Two Will Do 04:58
08. Life Just Showed Me 03:28
09. Ain't Nobody's Business 04:28
10. Hang'Em High 05:09
Лог создания рипа
Exact Audio Copy V1.0 beta 3 from 29. August 2011
EAC extraction logfile from 17. March 2014, 20:51
Jordan Officer / I'm Free
Used drive : ASUS BW-12B1ST Adapter: 5 ID: 0
Read mode : Secure
Utilize accurate stream : Yes
Defeat audio cache : Yes
Make use of C2 pointers : No
Read offset correction : 6
Overread into Lead-In and Lead-Out : No
Fill up missing offset samples with silence : Yes
Delete leading and trailing silent blocks : No
Null samples used in CRC calculations : Yes
Used interface : Native Win32 interface for Win NT & 2000
Gap handling : Appended to previous track
Used output format : User Defined Encoder
Selected bitrate : 1024 kBit/s
Quality : High
Add ID3 tag : No
Command line compressor : C:\Program Files (x86)\Exact Audio Copy\flac-1.3.0-win32\flac.exe
Additional command line options : -8 -V -T "ARTIST=%artist%" -T "TITLE=%title%" -T "ALBUM=%albumtitle%" -T "DATE=%year%" -T "TRACKNUMBER=%tracknr%" -T "GENRE=%genre%" -T "PERFORMER=%albuminterpret%" -T "COMPOSER=%composer%" %haslyrics%--tag-from-file=LYRICS="%lyricsfile%"%haslyrics% -T "ALBUMARTIST=%albumartist%" -T "DISCNUMBER=%cdnumber%" -T "TOTALDISCS=%totalcds%" -T "TOTALTRACKS=%numtracks%" -T "COMMENT=%comment%" %source% -o %dest%
TOC of the extracted CD
Track | Start | Length | Start sector | End sector
---------------------------------------------------------
1 | 0:00.00 | 3:58.19 | 0 | 17868
2 | 3:58.19 | 3:39.50 | 17869 | 34343
3 | 7:37.69 | 5:16.52 | 34344 | 58095
4 | 12:54.46 | 5:02.37 | 58096 | 80782
5 | 17:57.08 | 4:08.61 | 80783 | 99443
6 | 22:05.69 | 3:39.56 | 99444 | 115924
7 | 25:45.50 | 4:58.33 | 115925 | 138307
8 | 30:44.08 | 3:27.74 | 138308 | 153906
9 | 34:12.07 | 4:28.35 | 153907 | 174041
10 | 38:40.42 | 5:08.69 | 174042 | 197210
Track 1
Filename D:\EACRips\Jordan Officer - I'm Free\01 - At Least I've Got the Blues.wav
Pre-gap length 0:00:02.00
Peak level 97.8 %
Extraction speed 1.9 X
Track quality 100.0 %
Test CRC 3732F509
Copy CRC 3732F509
Track not present in AccurateRip database
Copy OK
Track 2
Filename D:\EACRips\Jordan Officer - I'm Free\02 - A Night of Fun.wav
Peak level 97.8 %
Extraction speed 2.1 X
Track quality 100.0 %
Test CRC 02223298
Copy CRC 02223298
Track not present in AccurateRip database
Copy OK
Track 3
Filename D:\EACRips\Jordan Officer - I'm Free\03 - I'm Free.wav
Peak level 97.8 %
Extraction speed 1.9 X
Track quality 99.9 %
Test CRC 34BBFB18
Copy CRC 34BBFB18
Track not present in AccurateRip database
Copy OK
Track 4
Filename D:\EACRips\Jordan Officer - I'm Free\04 - When We Were Just Two.wav
Peak level 97.8 %
Extraction speed 2.7 X
Track quality 100.0 %
Test CRC 456BB66A
Copy CRC 456BB66A
Track not present in AccurateRip database
Copy OK
Track 5
Filename D:\EACRips\Jordan Officer - I'm Free\05 - I'm All Alone.wav
Peak level 97.8 %
Extraction speed 2.8 X
Track quality 100.0 %
Test CRC AD64E24F
Copy CRC AD64E24F
Track not present in AccurateRip database
Copy OK
Track 6
Filename D:\EACRips\Jordan Officer - I'm Free\06 - Jackie's Tune.wav
Peak level 97.8 %
Extraction speed 2.1 X
Track quality 99.9 %
Test CRC CC3719E8
Copy CRC CC3719E8
Track not present in AccurateRip database
Copy OK
Track 7
Filename D:\EACRips\Jordan Officer - I'm Free\07 - Two Will Do.wav
Peak level 97.8 %
Extraction speed 2.5 X
Track quality 99.9 %
Test CRC C40BAE3A
Copy CRC C40BAE3A
Track not present in AccurateRip database
Copy OK
Track 8
Filename D:\EACRips\Jordan Officer - I'm Free\08 - Life Just Showed Me.wav
Peak level 91.4 %
Extraction speed 3.2 X
Track quality 100.0 %
Test CRC 0AE9D230
Copy CRC 0AE9D230
Track not present in AccurateRip database
Copy OK
Track 9
Filename D:\EACRips\Jordan Officer - I'm Free\09 - Ain't Nobody's Business.wav
Peak level 97.8 %
Extraction speed 3.4 X
Track quality 100.0 %
Test CRC 1FC6DB41
Copy CRC 1FC6DB41
Track not present in AccurateRip database
Copy OK
Track 10
Filename D:\EACRips\Jordan Officer - I'm Free\10 - Hang 'em High.wav
Peak level 97.8 %
Extraction speed 3.7 X
Track quality 100.0 %
Test CRC 78AD6023
Copy CRC 78AD6023
Track not present in AccurateRip database
Copy OK
None of the tracks are present in the AccurateRip database
No errors occurred
End of status report
---- CUETools DB Plugin V2.1.4
[CTDB TOCID: HWDgmbJhNIM2TLHLsvwEKDzvjSU-] disk not present in database
Submit result: HWDgmbJhNIM2TLHLsvwEKDzvjSU- has been uploaded
==== Log checksum E9F2B8CCDB45739840979557D01D13E36554E46ED8F6E7696E50B15AF9ADD3C1 ====
Содержание индексной карты (.CUE)
REM GENRE Blues
REM DATE 2014
REM DISCID 840A450A
REM COMMENT "ExactAudioCopy v1.0b3"
PERFORMER "Jordan Officer"
TITLE "I'm Free"
FILE "01 - At Least I've Got the Blues.flac" WAVE
TRACK 01 AUDIO
TITLE "At Least I've Got the Blues"
PERFORMER "Jordan Officer"
ISRC CAL6A1400001
INDEX 01 00:00:00
FILE "02 - A Night of Fun.flac" WAVE
TRACK 02 AUDIO
TITLE "A Night of Fun"
PERFORMER "Jordan Officer"
ISRC CAL6A1400002
INDEX 01 00:00:00
FILE "03 - I'm Free.flac" WAVE
TRACK 03 AUDIO
TITLE "I'm Free"
PERFORMER "Jordan Officer"
ISRC CAL6A1400003
INDEX 01 00:00:00
FILE "04 - When We Were Just Two.flac" WAVE
TRACK 04 AUDIO
TITLE "When We Were Just Two"
PERFORMER "Jordan Officer"
ISRC CAL6A1400004
INDEX 01 00:00:00
FILE "05 - I'm All Alone.flac" WAVE
TRACK 05 AUDIO
TITLE "I'm All Alone"
PERFORMER "Jordan Officer"
ISRC CAL6A1400005
INDEX 01 00:00:00
FILE "06 - Jackie's Tune.flac" WAVE
TRACK 06 AUDIO
TITLE "Jackie's Tune"
PERFORMER "Jordan Officer"
ISRC CAL6A1400006
INDEX 01 00:00:00
FILE "07 - Two Will Do.flac" WAVE
TRACK 07 AUDIO
TITLE "Two Will Do"
PERFORMER "Jordan Officer"
ISRC CAL6A1400007
INDEX 01 00:00:00
FILE "08 - Life Just Showed Me.flac" WAVE
TRACK 08 AUDIO
TITLE "Life Just Showed Me"
PERFORMER "Jordan Officer"
ISRC CAL6A1400008
INDEX 01 00:00:00
FILE "09 - Ain't Nobody's Business.flac" WAVE
TRACK 09 AUDIO
TITLE "Ain't Nobody's Business"
PERFORMER "Jordan Officer"
ISRC CAL6A1400009
INDEX 01 00:00:00
FILE "10 - Hang 'em High.flac" WAVE
TRACK 10 AUDIO
TITLE "Hang 'em High"
PERFORMER "Jordan Officer"
ISRC CAL6A1400010
INDEX 01 00:00:00
Лог проверки качества
-----------------------
DON'T MODIFY THIS FILE
-----------------------
PERFORMER: auCDtect Task Manager, ver. 1.5.1RC6 build 1.5.1.7
Copyright (c) 2008-2010 y-soft. All rights reserved
http://y-soft.org
ANALYZER: auCDtect: CD records authenticity detector, version 0.8.2
Copyright (c) 2004 Oleg Berngardt. All rights reserved.
Copyright (c) 2004 Alexander Djourik. All rights reserved.
FILE: 10 - Hang 'em High.flac
Size: 30354952 Hash: EE0BEFA3ABA57B7872C09D62DA1DCA26 Accuracy: -m0
Conclusion: CDDA 100%
Signature: 01C2DB9E4AF0D28A4A9A6383579EB95C75D25830
FILE: 09 - Ain't Nobody's Business.flac
Size: 26723430 Hash: 7E74637293C29F42A1052BBD16E10ECC Accuracy: -m0
Conclusion: CDDA 100%
Signature: DAA006CD83ECA4FCB6C3011490463A4DF0E4B0B9
FILE: 08 - Life Just Showed Me.flac
Size: 14556440 Hash: 53AB504E9AE249AF4DED93FC31B446EB Accuracy: -m0
Conclusion: CDDA 99%
Signature: 6F7A9136CACEDEE65CD1498C0597A34C786DBCAC
FILE: 07 - Two Will Do.flac
Size: 31694085 Hash: 25FAD86159257FB3B561641A7AC13174 Accuracy: -m0
Conclusion: CDDA 100%
Signature: 5CACFDC2F32622D172586DAACA686CD44CD65797
FILE: 06 - Jackie's Tune.flac
Size: 19982289 Hash: 9F56733940B5822001E0B7D4E4701CF6 Accuracy: -m0
Conclusion: CDDA 100%
Signature: 740C810B1F6B83EFA9BD9DEFA13649368B882CA0
FILE: 05 - I'm All Alone.flac
Size: 23194570 Hash: B2F189F6024251942CBE5D9B84EFBF65 Accuracy: -m0
Conclusion: CDDA 100%
Signature: 8701A7D413984ABB29823588709EEA3F4B50B5CC
FILE: 04 - When We Were Just Two.flac
Size: 32211175 Hash: E0E4B1CC4F73C956FD1CE0B513061E13 Accuracy: -m0
Conclusion: CDDA 100%
Signature: 0BCF1C6D757988B3A807BD31CDE95AD57ECF08F2
FILE: 03 - I'm Free.flac
Size: 27513326 Hash: AA40108863FD3FBFECBE77CB7DBF0D96 Accuracy: -m0
Conclusion: CDDA 100%
Signature: 8F05E8ED633135762613A8A96FAEAD7BBF165086
FILE: 02 - A Night of Fun.flac
Size: 23068905 Hash: 0E46E2E2AD4B6E15F694CB6AAF7C7FDE Accuracy: -m0
Conclusion: CDDA 100%
Signature: AD145D746D2FC20D231EC358FFE285FDA964AB2F
FILE: 01 - At Least I've Got the Blues.flac
Size: 23667256 Hash: A2F9A766D4B38B294D74735881271AAD Accuracy: -m0
Conclusion: CDDA 99%
Signature: 42A23E54854D36DC9995E914F166B7021518AEAE
CUETools log
[CUETools log; Date: 20.12.2015 23:03:31; Version: 2.1.5]
[CTDB TOCID: HWDgmbJhNIM2TLHLsvwEKDzvjSU-] found.
Track | CTDB Status
1 | (2/2) Accurately ripped
2 | (2/2) Accurately ripped
3 | (2/2) Accurately ripped
4 | (2/2) Accurately ripped
5 | (2/2) Accurately ripped
6 | (2/2) Accurately ripped
7 | (2/2) Accurately ripped
8 | (2/2) Accurately ripped
9 | (2/2) Accurately ripped
10 | (2/2) Accurately ripped
[AccurateRip ID: 00105369-0082fd81-840a450a] found.
Track [ CRC | V2 ] Status
01 [b284da60|4a77a1bf] (0+3/3) Accurately ripped
02 [f546dcf4|1c09ce52] (0+2/2) Accurately ripped
03 [951d808f|e4c2644a] (0+3/3) Accurately ripped
04 [89d39bf2|7777c535] (0+3/3) Accurately ripped
05 [be39f02e|17283ad6] (0+2/2) Accurately ripped
06 [56f3d340|f6547f8e] (0+3/3) Accurately ripped
07 [108e58c1|8d3ef64c] (0+2/2) Accurately ripped
08 [dc916819|2b995580] (0+2/2) Accurately ripped
09 [525048fd|a474c127] (0+3/3) Accurately ripped
10 [38331217|a2ca40eb] (0+3/3) Accurately ripped
Track Peak [ CRC32 ] [W/O NULL] [ LOG ]
-- 97,8 [6E303E24] [F8381BA0]
01 97,8 [3732F509] [91862213] CRC32
02 97,8 [02223298] [53B61E81] CRC32
03 97,8 [34BBFB18] [72942CA4] CRC32
04 97,8 [456BB66A] [021526AA] CRC32
05 97,8 [AD64E24F] [AE9515A5] CRC32
06 97,8 [CC3719E8] [80A6CC89] CRC32
07 97,8 [C40BAE3A] [1DF0B523] CRC32
08 91,4 [0AE9D230] [C45A6651] CRC32
09 97,8 [1FC6DB41] [BB2A3D39] CRC32
10 97,8 [78AD6023] [AEA2FB2F] CRC32
DR log
foobar2000 1.3.9 / Dynamic Range Meter 1.1.1
log date: 2015-12-20 22:52:33
--------------------------------------------------------------------------------
Analyzed: Jordan Officer / I'm Free
--------------------------------------------------------------------------------
DR Peak RMS Duration Track
--------------------------------------------------------------------------------
DR9 -0.19 dB -10.26 dB 3:58 01-At Least I've Got the Blues
DR9 -0.19 dB -10.96 dB 3:40 02-A Night of Fun
DR8 -0.19 dB -11.39 dB 5:17 03-I'm Free
DR9 -0.19 dB -12.86 dB 5:02 04-When We Were Just Two
DR7 -0.19 dB -9.90 dB 4:09 05-I'm All Alone
DR11 -0.19 dB -14.65 dB 3:40 06-Jackie's Tune
DR10 -0.19 dB -13.02 dB 4:58 07-Two Will Do
DR10 -0.78 dB -14.67 dB 3:28 08-Life Just Showed Me
DR9 -0.19 dB -13.08 dB 4:28 09-Ain't Nobody's Business
DR9 -0.19 dB -12.63 dB 5:09 10-Hang 'em High
--------------------------------------------------------------------------------
Number of tracks: 10
Official DR value: DR9
Samplerate: 44100 Hz
Channels: 2
Bits per sample: 16
Bitrate: 783 kbps
Codec: FLAC
================================================================================
Доп. информация
Spectrogram
Download
Для скачивания .torrent файлов необходима регистрация
Сайт не распространяет и не хранит электронные версии произведений, а лишь предоставляет доступ к создаваемому пользователями каталогу ссылок на торрент-файлы, которые содержат только списки хеш-сумм
[Профиль]  [ЛС] 

Colpy

Стаж: 6 лет 1 месяц

Сообщений: 3101

Colpy · 24-Дек-15 15:45 (спустя 2 дня 1 час)

Отличный музыкант, отличная музыка, что к сожалению нельзя сказать о качестве релиза, "наводки" при создании рипа ну прям так и режут слух! Ready.zp, спасибо за интересную находку.
[Профиль]  [ЛС] 

рмх222

VIP (Заслуженный)

Стаж: 12 лет 4 месяца

Сообщений: 9603

рмх222 · 25-Дек-15 07:38 (спустя 15 часов, ред. 25-Дек-15 07:38)

Colpy писал(а):
69591155"наводки" при создании рипа ну прям так и режут слух!
Может , всё же , это относится к записи самого диска?
Рип то тут причём? Что записано , то и сняли.
Это не с винилом колдовать.
..............
Я бы ещё добавил , такую запись можно слушать на уровне ниже среднего.
Чуть выше , и лично у меня , появляется желание выключить через минуту.
..............
Ready.zp
[Профиль]  [ЛС] 
 
Ответить
Loading...
Error