Tennis Masters Cup Houston Финал Роджер Федерер - Андре Агасси ( R. Federer - A. Agassi ) [2003, Большой теннис, TVRip]

Страницы:  1

Ответить
Автор
Сообщение

Euro2006

Top User 01

Стаж: 12 лет 2 месяца

Сообщений: 397

Euro2006 · 21-Ноя-09 22:33 (9 лет 7 месяцев назад, ред. 22-Ноя-09 01:14)

2003 Tennis Masters Cup Houston Финал Роджер Федерер - Андре Агасси (Roger Federer - Andre Agassi )
Год выпуска: 2003
Вид спорта: Большой теннис
Участники: Роджер Федерер и Андре Агасси
Продолжительность: *
Комментарий: Профессиональный (многоголосый, закадровый)
Язык комментариев: Английский
Описание: Финальный Матч 2003 Tennis Masters Cup Houston, Texas USA.
Доп. информация: Автор рипа неизвестен.
Качество: TVRip
Формат: M2TS
Видео кодек: H.264
Аудио кодек: AAC
Видео: MPEG4 Video (H264) 720x480 29.97fps ~2500 Kbps
Аудио: AAC 48000Hz stereo 128 Kbps
Продолжительность *
01:16:17
KMPlayer Media Information
General #0
ID : 0
2003 Masters Cup Houston final Agassi - Federer.m2ts
Format : MPEG-TS
File size : 1.51 GiB
Duration : 1h 16mn
Overall bit rate : 2 841 Kbps
Video #4113
ID : 4113 (0x1011)
Menu ID : 1 (0x1)
Format : AVC
Format/Info : Advanced Video Codec
Format profile : Main@L3.1
Format settings, CABAC : Yes
Format settings, ReFrames : 4 frames
Duration : 1h 16mn
Bit rate : 2 515 Kbps
Width : 720 pixels
Height : 480 pixels
Display aspect ratio : 4:3
Frame rate : 29.970 fps
Standard : NTSC
Resolution : 24 bits
Colorimetry : 4:2:0
Scan type : Interlaced
Scan order : Top Field First
Bits/(Pixel*Frame) : 0.243
Stream size : 1.34 GiB (89%)
Audio #4352
ID : 4352 (0x1100)
Menu ID : 1 (0x1)
Format : AAC
Format/Info : Advanced Audio Codec
Format version : Version 2
Format profile : LC
Muxing mode : ADTS
Duration : 1h 16mn
Bit rate mode : Constant
Bit rate : 128 Kbps
Channel(s) : 2 channels
Sampling rate : 48.0 KHz
Resolution : 16 bits
Video delay : -140ms
Stream size : 70.1 MiB (5%)
Скриншоты






Результат




Download
Для скачивания .torrent файлов необходима регистрация
Сайт не распространяет и не хранит электронные версии произведений, а лишь предоставляет доступ к создаваемому пользователями каталогу ссылок на торрент-файлы, которые содержат только списки хеш-сумм
[Профиль]  [ЛС] 

Roger-Federer-C

Стаж: 9 лет 9 месяцев

Сообщений: 10


Roger-Federer-C · 21-Ноя-09 23:23 (спустя 50 мин.)

а какие матчи с участие роджера у вас еще есть
спасибо за прекрасный матч
[Профиль]  [ЛС] 

Euro2006

Top User 01

Стаж: 12 лет 2 месяца

Сообщений: 397

Euro2006 · 22-Ноя-09 01:16 (спустя 1 час 53 мин.)

Все что было уже здесь, если еще какие найду - тоже выложу.
Рад был поделиться.
[Профиль]  [ЛС] 

kfjkghjgjh

Стаж: 11 лет

Сообщений: 227

kfjkghjgjh · 22-Ноя-09 21:41 (спустя 20 часов)

полуфинал федерера и роддика оч хотел бы))
[Профиль]  [ЛС] 

Euro2006

Top User 01

Стаж: 12 лет 2 месяца

Сообщений: 397

Euro2006 · 23-Ноя-09 17:24 (спустя 19 часов, ред. 28-Ноя-09 22:09)

kfjkghjgjh писал(а):
полуфинал федерера и роддика оч хотел бы))
Про Роддика я всегда помню и как только появится, обязательно выложу.
[Профиль]  [ЛС] 

wwatcher

Стаж: 11 лет 8 месяцев

Сообщений: 347


wwatcher · 28-Ноя-09 00:29 (спустя 4 дня, ред. 28-Ноя-09 00:29)

А как смотреть? KMPlayer не показывает другие анадогично
[Профиль]  [ЛС] 

Euro2006

Top User 01

Стаж: 12 лет 2 месяца

Сообщений: 397

Euro2006 · 28-Ноя-09 22:11 (спустя 21 час)

wwatcher писал(а):
А как смотреть? KMPlayer не показывает другие анадогично
Пожалуйста расшифруйте вашу проблему - что не показывает KMPlayer?
[Профиль]  [ЛС] 

Revganos_Svet

Стаж: 9 лет 3 месяца

Сообщений: 8


Revganos_Svet · 30-Мар-10 04:04 (спустя 4 месяца 1 день, ред. 31-Мар-10 01:55)

А кто в школе немецкий учил? Хотелось бы не только смотреть, но и умных людей послушать.
Может у кого-то есть русский перевод? Буду очень благодарна...
[Профиль]  [ЛС] 

Revganos_Svet

Стаж: 9 лет 3 месяца

Сообщений: 8


Revganos_Svet · 12-Апр-10 14:29 (спустя 13 дней, ред. 12-Апр-10 14:29)

Cпасибо, скачала нормально, но возникла проблема - не могу просмотреть. Смотрела в КМплеере, обычно он все показывает. Подскажите в чем может быть проблема. Спасибо.
В принципе картинка есть, НО тормозит жутко...
[Профиль]  [ЛС] 

rossandrachel

Стаж: 9 лет 4 месяца

Сообщений: 2


rossandrachel · 10-Июл-10 14:54 (спустя 2 месяца 28 дней)

а никто не знает, гдe можно скачать игры для UNICEF с маратом, роджером и т.д.?
[Профиль]  [ЛС] 

SlesarЬ

Top Seed 03* 160r

Стаж: 11 лет 1 месяц

Сообщений: 730

SlesarЬ · 17-Ноя-10 20:02 (спустя 4 месяца 7 дней, ред. 17-Ноя-10 20:02)

тем кто скачал - здесь матч полностью?
есть русскоязычная версия (по времени почти в 2 раза больше)
[Профиль]  [ЛС] 

Sacha_2009

Стаж: 9 лет 3 месяца

Сообщений: 17


Sacha_2009 · 18-Ноя-10 00:16 (спустя 4 часа)

SlesarЬ
Виложи нам сайт рускоязичну версию, зарание благодарен
[Профиль]  [ЛС] 

oleg_1954

Top Seed 04* 320r

Стаж: 10 лет 7 месяцев

Сообщений: 1479

oleg_1954 · 22-Ноя-10 18:18 (спустя 4 дня, ред. 22-Ноя-10 18:18)

SlesarЬ писал(а):
тем кто скачал - здесь матч полностью?
есть русскоязычная версия (по времени почти в 2 раза больше)
Этот же матч (1.46 ГБ)
Комментарий: русский и английский. Матч полный.
[Профиль]  [ЛС] 

McCarthy

Стаж: 10 лет 7 месяцев

Сообщений: 1


McCarthy · 19-Июл-18 11:40 (спустя 7 лет 7 месяцев)

Можете кто-нибудь встать на раздачу пожалуйста?
[Профиль]  [ЛС] 
 
Ответить
Loading...
Error