[DSD][OF] Hubert Sumlin - I Know You - 1998/2013 (Blues)

Страницы:  1

Ответить
Автор
Сообщение

jonspenser

Стаж: 9 лет 8 месяцев

Сообщений: 158


jonspenser · 02-Ноя-17 13:15 (1 год 7 месяцев назад)

Hubert Sumlin - I Know You
Формат записи/Источник записи: [DSD][OF]
Наличие водяных знаков: Нет
Год издания/переиздания диска: 1998/2013
Жанр: Blues
Издатель (лейбл): APO Records
Продолжительность: 56:54
Наличие сканов в содержимом раздачи: Буклет PDF
Источник (релизер): Acoustic Sounds
Треклист:
01. I’m Coming Home
02. Howlin’ For My Darling
03. That’s Why I’m Gonna Leave You
04. How Many More Years
05. Don’t Judge A Book By The Cover
06. I Got It Where I Want It
07. I’m Not Your Clown
08. 'Smokestack'
09. I’ve Been Hurt
10. Mind Is Rambling
11. You My Best
12. Good Bye
Produced by Joe Harley. Executive Producer: Chad Kassem.
Recorded by Michael C. Ross on October 12-13, 1997 at Chicago Recording Company, IL.
Mastered by Kevin Gray at AcousTech Mastering, Camarillo, CA.
This is a pure analog recording.
The tracks were recorded live direct to two track.
Recorded: Studer A 807. Tape: BASF 900@30 ips tape.
Контейнер: DSF (*.dsf)
Тип рипа: tracks
Разрядность: 64(2,8 MHz/1 Bit)
Формат: DSD
Количество каналов: 2.0
Лог проверки качества
foobar2000 1.3.14 / Dynamic Range Meter 1.1.1
log date: 2017-03-30 16:05:39
--------------------------------------------------------------------------------
Analyzed: Hubert Sumlin / I Know You
--------------------------------------------------------------------------------
DR Peak RMS Duration Track
--------------------------------------------------------------------------------
DR13 -3.79 dB -19.28 dB 4:00 01-I'm Coming Home
DR14 -4.94 dB -20.47 dB 3:50 02-Howlin' For My Darling
DR15 -4.52 dB -23.13 dB 8:32 03-That's Why I'm Gonna Leave You
DR15 -4.62 dB -22.56 dB 4:02 04-How Many More Years
DR18 -8.17 dB -31.76 dB 3:34 05-Don't Judge A Book By The Cover
DR12 -3.41 dB -18.10 dB 5:55 06-I Got It Where I Want It
DR12 -7.18 dB -21.77 dB 4:00 07-I'm Not Your Clown
DR15 -4.60 dB -21.85 dB 4:41 08-''Smokestack''
DR14 -4.38 dB -22.12 dB 7:21 09-I've Been Hurt
DR14 -4.29 dB -20.32 dB 3:26 10-Mind Is Rambling
DR16 -6.91 dB -29.55 dB 3:06 11-You My Best
DR15 -2.86 dB -19.19 dB 4:28 12-Good Bye
--------------------------------------------------------------------------------
Number of tracks: 12
Official DR value: DR14
Samplerate: 2822400 Hz / PCM Samplerate: 88200 Hz
Channels: 2
Bits per sample: 1
Bitrate: 5645 kbps
Codec: DSD64
================================================================================
Состав
Hubert Sumlin – vocals, guitar
Jimmy D. Lane – guitar
Freddie Crawford – bass
Sam Lay – drums
David Krull – piano, organ
Carey Bell – harmonica
Download
Для скачивания .torrent файлов необходима регистрация
Сайт не распространяет и не хранит электронные версии произведений, а лишь предоставляет доступ к создаваемому пользователями каталогу ссылок на торрент-файлы, которые содержат только списки хеш-сумм
[Профиль]  [ЛС] 

Jasonsgold

Стаж: 1 год 11 месяцев

Сообщений: 201


Jasonsgold · 27-Июн-18 02:29 (спустя 7 месяцев)

Thank you for sharing this. If possible could someone seed or reseed this. Thank you very much! (:
[Профиль]  [ЛС] 

aqtaket

Стаж: 11 лет 6 месяцев

Сообщений: 63


aqtaket · 17-Май-19 15:44 (спустя 10 месяцев)

Шестой трек как-то внезапно обрывается, у всех так?
[Профиль]  [ЛС] 
 
Ответить
Loading...
Error