(Blues-Rock) Marc Benno - Lost In Austin - 1979, FLAC (tracks+.cue) lossless

Страницы:  1

Ответить
Автор
Сообщение

jazzluq

Стаж: 9 лет 3 месяца

Сообщений: 1853

jazzluq · 12-Сен-10 21:33 (8 лет 9 месяцев назад, ред. 12-Сен-10 21:37)

Marc Benno / Lost In Austin (1979)
Жанр: Blues/Rock
Страна-производитель cd-диска: Japan
Год издания cd-диска: 1988
Издатель (лейбл): A & M Records / Pony Canyon Records
Номер по каталогу: D32Y3535
Страна: USA
Аудио кодек: FLAC (*.flac)
Тип рипа: tracks+.cue
Битрейт аудио: lossless
Продолжительность: 00:41:55
Источник (релизер): рип мой . cd тоже
Наличие сканов в содержимом раздачи: нет
Треклист:
01. Hotfoot Blues (5:01)
02. Chasin' Rainbows (4:15)
03. Me and a Friend of Mine (3:07)
04. New Romance (4:08)
05. Last Train (4:06)
06. Lost in Austin (5:08)
07. Splish Splash (3:08)
08. Monterrey Pen (3:23)
09. The Drifter (4:30)
10. Hey There Senorita (5:08)
Лог создания рипа
Exact Audio Copy V0.99 prebeta 5 from 4. May 2009
Отчёт EAC об извлечении, выполненном 12. сентября 2010, 20:28
Marc Benno / Lost in Austin
Дисковод: SONY DVD RW DRX-S70U Adapter: 1 ID: 0
Режим чтения : Достоверность
Использование точного потока : Да
Отключение кэша аудио : Да
Использование указателей C2 : Нет
Коррекция смещения при чтении : 48
Способность читать области Lead-in и Lead-out : Нет
Заполнение пропущенных сэмплов тишиной : Да
Удаление блоков с тишиной в начале и конце : Нет
При вычислениях CRC использовались нулевые сэмплы : Да
Интерфейс : Встроенный Win32-интерфейс для Win NT/2000
Обработка зазоров : Добавлено к предыдущему треку
Выходной формат : Пользовательский кодировщик
Выбранный битрейт : 768 kBit/s
Качество : Высокий
Добавление ID3-тэга : Нет
Утилита сжатия : H:\Program Files\Exact Audio Copy\Flac\flac.exe
Дополнительные параметры : -6 -V -T "ARTIST=%a" -T "TITLE=%t" -T "ALBUM=%g" -T "DATE=%y" -T "TRACKNUMBER=%n" -T "GENRE=%m" -T "COMMENT=%e" %s -o %d
TOC извлечённого CD
Трек | Старт | Длительность | Начальный сектор | Конечный сектор
---------------------------------------------------------------------
1 | 0:00.00 | 5:00.57 | 0 | 22556
2 | 5:00.57 | 4:15.03 | 22557 | 41684
3 | 9:15.60 | 3:07.17 | 41685 | 55726
4 | 12:23.02 | 4:07.63 | 55727 | 74314
5 | 16:30.65 | 4:06.15 | 74315 | 92779
6 | 20:37.05 | 5:08.30 | 92780 | 115909
7 | 25:45.35 | 3:08.15 | 115910 | 130024
8 | 28:53.50 | 3:23.02 | 130025 | 145251
9 | 32:16.52 | 4:30.25 | 145252 | 165526
10 | 36:47.02 | 5:07.40 | 165527 | 188591
Трек 1
Имя файла F:\Marc Benno\[01]Hotfoot Blues.wav
Длина предзазора 0:00:02.00
Пиковый уровень 94.7 %
Качество трека 100.0 %
CRC теста 397279FD
CRC копии 397279FD
Трек не обнаружен в базе AccurateRip
Копирование... OK
Трек 2
Имя файла F:\Marc Benno\[02]Chasin' Rainbows.wav
Длина предзазора 0:00:02.49
Пиковый уровень 87.0 %
Качество трека 99.9 %
CRC теста 15337DC4
CRC копии 15337DC4
Трек не обнаружен в базе AccurateRip
Копирование... OK
Трек 3
Имя файла F:\Marc Benno\[03]Me and a Friend of Mine.wav
Длина предзазора 0:00:01.17
Пиковый уровень 89.1 %
Качество трека 100.0 %
CRC теста 8902F56E
CRC копии 8902F56E
Трек не обнаружен в базе AccurateRip
Копирование... OK
Трек 4
Имя файла F:\Marc Benno\[04]New Romance.wav
Длина предзазора 0:00:03.22
Пиковый уровень 74.6 %
Качество трека 100.0 %
CRC теста C83FEFEE
CRC копии C83FEFEE
Трек не обнаружен в базе AccurateRip
Копирование... OK
Трек 5
Имя файла F:\Marc Benno\[05]Last Train.wav
Длина предзазора 0:00:01.00
Пиковый уровень 90.5 %
Качество трека 100.0 %
CRC теста CA4ACC3A
CRC копии CA4ACC3A
Трек не обнаружен в базе AccurateRip
Копирование... OK
Трек 6
Имя файла F:\Marc Benno\[06]Lost in Austin.wav
Пиковый уровень 84.9 %
Качество трека 100.0 %
CRC теста 29CC4E4B
CRC копии 29CC4E4B
Трек не обнаружен в базе AccurateRip
Копирование... OK
Трек 7
Имя файла F:\Marc Benno\[07]Splish Splash.wav
Пиковый уровень 84.7 %
Качество трека 100.0 %
CRC теста 80822925
CRC копии 80822925
Трек не обнаружен в базе AccurateRip
Копирование... OK
Трек 8
Имя файла F:\Marc Benno\[08]Monterrey Pen.wav
Длина предзазора 0:00:01.06
Пиковый уровень 96.9 %
Качество трека 100.0 %
CRC теста 090BB7FF
CRC копии 090BB7FF
Трек не обнаружен в базе AccurateRip
Копирование... OK
Трек 9
Имя файла F:\Marc Benno\[09]The Drifter.wav
Длина предзазора 0:00:02.06
Пиковый уровень 96.2 %
Качество трека 100.0 %
CRC теста A8F1D07B
CRC копии A8F1D07B
Трек не обнаружен в базе AccurateRip
Копирование... OK
Трек 10
Имя файла F:\Marc Benno\[10]Hey There Senorita.wav
Длина предзазора 0:00:03.53
Пиковый уровень 68.9 %
Качество трека 100.0 %
CRC теста 059EAFE8
CRC копии 059EAFE8
Трек не обнаружен в базе AccurateRip
Копирование... OK
Ни одного трека нет в базе AccurateRip
Ошибок не произошло
Конец отчёта
Содержание индексной карты (.CUE)
REM GENRE Blues
REM DATE 1979
REM DISCID 8E09D20A
REM COMMENT "ExactAudioCopy v0.99pb5"
PERFORMER "Marc Benno"
TITLE "Lost in Austin"
FILE "[01]Hotfoot Blues.wav" WAVE
TRACK 01 AUDIO
TITLE "Hotfoot Blues"
PERFORMER "Marc Benno"
INDEX 01 00:00:00
TRACK 02 AUDIO
TITLE "Chasin' Rainbows"
PERFORMER "Marc Benno"
INDEX 00 04:58:20
FILE "[02]Chasin' Rainbows.wav" WAVE
INDEX 01 00:00:00
TRACK 03 AUDIO
TITLE "Me and a Friend of Mine"
PERFORMER "Marc Benno"
INDEX 00 04:13:65
FILE "[03]Me and a Friend of Mine.wav" WAVE
INDEX 01 00:00:00
TRACK 04 AUDIO
TITLE "New Romance"
PERFORMER "Marc Benno"
INDEX 00 03:04:00
FILE "[04]New Romance.wav" WAVE
INDEX 01 00:00:00
TRACK 05 AUDIO
TITLE "Last Train"
PERFORMER "Marc Benno"
INDEX 00 04:06:63
FILE "[05]Last Train.wav" WAVE
INDEX 01 00:00:00
FILE "[06]Lost in Austin.wav" WAVE
TRACK 06 AUDIO
TITLE "Lost in Austin"
PERFORMER "Marc Benno"
INDEX 01 00:00:00
FILE "[07]Splish Splash.wav" WAVE
TRACK 07 AUDIO
TITLE "Splish Splash"
PERFORMER "Marc Benno"
INDEX 01 00:00:00
TRACK 08 AUDIO
TITLE "Monterrey Pen"
PERFORMER "Marc Benno"
INDEX 00 03:07:10
FILE "[08]Monterrey Pen.wav" WAVE
INDEX 01 00:00:00
TRACK 09 AUDIO
TITLE "The Drifter"
PERFORMER "Marc Benno"
INDEX 00 03:20:72
FILE "[09]The Drifter.wav" WAVE
INDEX 01 00:00:00
TRACK 10 AUDIO
TITLE "Hey There Senorita"
PERFORMER "Marc Benno"
INDEX 00 04:26:60
FILE "[10]Hey There Senorita.wav" WAVE
INDEX 01 00:00:00
Лог проверки качества
AUDIOCHECKER v2.0 beta (build 457) - by Dester - opdester@freemail.hu
~~~~~~~~~~~~~~~~~~~~~~~~~~~~~~~~~~
-=== DO NOT EDIT THIS FILE! ===-
Path: ...\Marc Benno
01 -=- [01]Hotfoot Blues.flac -=- CDDA (100%)
02 -=- [02]Chasin' Rainbows.flac -=- CDDA (100%)
03 -=- [03]Me and a Friend of Mine.flac -=- CDDA (99%)
04 -=- [04]New Romance.flac -=- CDDA (100%)
05 -=- [05]Last Train.flac -=- CDDA (100%)
06 -=- [06]Lost in Austin.flac -=- CDDA (100%)
07 -=- [07]Splish Splash.flac -=- CDDA (100%)
08 -=- [08]Monterrey Pen.flac -=- CDDA (100%)
09 -=- [09]The Drifter.flac -=- CDDA (100%)
10 -=- [10]Hey There Senorita.flac -=- CDDA (100%)
Summary 99,90% CDDA
52515268
состав
Marc Benno - guitar, piano, vocals
Albert Lee - guitar
Eric Clapton - guitar, slade guitar
Jim Keltner - drums
Dick Sims - keyboards
Carl Radle - bass
Dickie Morresey - saxophoneproduced and engineered by Glyn Johns
Download
Для скачивания .torrent файлов необходима регистрация
Сайт не распространяет и не хранит электронные версии произведений, а лишь предоставляет доступ к создаваемому пользователями каталогу ссылок на торрент-файлы, которые содержат только списки хеш-сумм
[Профиль]  [ЛС] 
 
Ответить
Loading...
Error